extratorrent - A Fan Made Alternative Login   |   Register
Important Information
Registrations are open now
-------------------------------------

Please click here to register with Extratorrent2 to recieve latest updates, add bookmarks and to post comments.

Friends
Friends

1) ProxyFix

Extratorrent2 > Categories > Movies > Drishtikone (2018) Bengali - 720p - WEB-HD - x264 - 2.4GB - AAC - MovCr torrent


Browse Movies torrents

Drishtikone (2018) Bengali - 720p - WEB-HD - x264 - 2.4GB - AAC - MovCr torrent


Download torrent: Download Drishtikone (2018) Bengali - 720p - WEB-HD - x264 - 2.4GB - AAC - MovCr torrent Magnet link Bookmark Torrent: Drishtikone (2018) Bengali - 720p - WEB-HD - x264 - 2.4GB - AAC - MovCr   Drishtikone (2018) Bengali - 720p - WEB-HD - x264 - 2.4GB - AAC - MovCr torrent
Info hash: BF2DAFFA4F71BA91F096967054349451ABA11CB1
Category: Categories > Movies
Trackers:
View all torrent trackers >
Health:
 seeds: 9 ,  leechers: 4 |  Update >
Torrent language: Bengali/Bangla Bengali/Bangla
Total Size: 2.4 GB
Files List:
1    View torrent files >
Uploader:
MovCr
Torrent added: November 6, 2018, 4:30 pm
Users rating: ---, not rated. please login to rate.

Download Drishtikone (2018) Bengali - 720p - WEB-HD - x264 - 2.4GB - AAC - MovCr torrent



Torrent Description

http://movcr.cc/

Drishtikone (2018) Bengali - 1080p - WEB-HD - x264 - 2.4GB - AAC - MovCr


Video
ID : 1
Format : AVC
Format/Info : Advanced Video Codec
Format profile :
Format settings : CABAC / 4 Ref Frames
Format settings, CABAC : Yes
Format settings, RefFrames : 4 frames
Codec ID : V_MPEG4/ISO/AVC
Duration : 2 h 11 min
Bit rate : 2 500 kb/s
Width : 1 280 pixels
Height : 720 pixels
Display aspect ratio : 16:9
Frame rate mode : Constant
Frame rate : 25.000 FPS
Color space : YUV
Chroma subsampling : 4:2:0
Bit depth : 8 bits
Scan type : Progressive
Bits/(Pixel*Frame) : 0.109
Stream size : 2.29 GiB (97%)
Title : www.MovCr.cc
Writing library : x264 core 152 r2854 e9a5903
Encoding settings : cabac=1 / ref=3 / deblock=1:0:0 / analyse=0x3:0x113 / me=hex / subme=7 / psy=1 / psy_rd=1.00:0.00 / mixed_ref=1 / me_range=16 / chroma_me=1 / trellis=1 / 8x8dct=1 / cqm=0 / deadzone=21,11 / fast_pskip=1 / chroma_qp_offset=-2 / threads=22 / lookahead_threads=3 / sliced_threads=0 / nr=0 / decimate=1 / interlaced=0 / bluray_compat=0 / constrained_intra=0 / bframes=3 / b_pyramid=2 / b_adapt=1 / b_bias=0 / direct=1 / weightb=1 / open_gop=0 / weightp=2 / keyint=50 / keyint_min=26 / scenecut=0 / intra_refresh=0 / rc_lookahead=40 / rc=abr / mbtree=1 / bitrate=2500 / ratetol=1.0 / qcomp=0.60 / qpmin=0 / qpmax=69 / qpstep=4 / vbv_maxrate=3250 / vbv_bufsize=3750 / nal_hrd=none / filler=0 / ip_ratio=1.40 / aq=1:1.00
Default : Yes
Forced : No

Audio
ID : 2
Format : AAC LC
Format/Info : Advanced Audio Codec Low Complexity
Codec ID : A_AAC-2
Duration : 2 h 11 min
Bit rate : 64.3 kb/s
Channel(s) : 2 channels
Channel layout : L R
Sampling rate : 48.0 kHz
Frame rate : 46.875 FPS (1024 SPF)
Compression mode : Lossy
Stream size : 60.6 MiB (3%)
Title : www.MovCr.cc
Default : Yes
Forced : No







Download Drishtikone (2018) Bengali - 720p - WEB-HD - x264 - 2.4GB - AAC - MovCr torrent


Related Torrents


Comments   (please login to add your comment!)

rajinikanth     connie carter doctor adventures     private 1080p     bianca breeze     just cause 4     in to     cities fitgirl     paul heyman     ana 2017     ryder     windows 2018 gen2     ogling in office     aviator ita     butthole     rush hour 2     rustica     candela ggg     the deal     penny pax     french natacha     the war of the planet of the apes hindi     private anissa kate     transangels tomb rider     arizona 1940     


Home - Browse Torrents

Made with love by an Extratorrent Fan!